Документальный фильм Just Let Go: Lenny Kravitz Live покажет Первый Канал

Документальный фильм Just Let Go: Lenny Kravitz Live покажет Первый Канал

Мы немного изменили элементы на странице с фильмом таким образом, чтобы кинолюбителям было максимально удобно найти всю необходимую информацию о фильме, посмотреть его онлайн, скачать или использовать другой многочисленный функционал нашего сайта. Основное нововведение — плеер для онлайн просмотра расположен вверху страницы.

Теперь у нас на сайте есть возможность смотреть фильмы онлайн

Рады сообщить вам о том, что теперь на сайте есть возможность смотреть фильмы онлайн. Также добавлены и другие полезные функции.

Новый раздел меню «Избранное» — «Интересы»

Теперь возможности меню «Избранное» пополнились новым разделом «Интересы», который открывает новые широкие уникальные возможности и непременно порадует любого киномана.

  • Посмотреть все новости

Главная — Форум — Обсуждение Фильмов — Lenny Kravitz Live: Just Let Go (2015)

Музыка: Lenny Kravitz Live: Just Let Go (2015) Подробнее

Рок-гитарист Ленни Кравиц порадовал фэнов новым концертным релизом. Основой концертного фильма стал материал, снятый в ходе гастрольного тура Кравица по Европе осенью прошлого года. Кто бы мог подумать, но темнокожий Ленни Кравиц имеет украинские корни! Мама и папа Ленни родились в США, а вот дед со стороны отца родился на Украине, откуда уехал в Штаты. Ленни Кравиц известен, скорее, как сольный артист: в студии он сам работает со всеми инструментами. Тем не менее, музыканты очень важны для него как в личном, так и в профессиональном плане, не говоря уже о работе на сцене. «Я сольный артист, но «Just Let Go» расскажет также о моей группе и нашем взаимодействии во время тура, — говорит Ленни Кравиц. — Этот фильм покажет в подробностях реалии тура и даст возможность взглянуть на нашу жизнь изнутри».

Документальный фильм Just Let Go: Lenny Kravitz Live покажет Первый Канал

Только в октябре – все купоны на сервисе «Скидки МариМедиа» за ноль рублей

В холодную осень, наполненную пронизывающими ветрами и серым колючим дождём, самое время согреться нашим горячим предложением.

11 октября 2021 12:37

Марий Эл в шаге от «красной зоны» по COVID-19

В Марий Эл стремительно ухудшается эпидемиологическая обстановка по COVID-19.

6 октября 2021 16:00

Законы, вступающие в силу в октябре

Военные пенсии, частные клиники, карты «Мир», НКО.

1 октября 2021 10:35

В Йошкар-Оле открыли Культурно-выставочный центр Русского музея

В Йошкар-Оле на базе Национальной художественной галереи открылся Культурно-выставочный центр Русского музея.

28 сентября 2021 13:45

Онлайн-камеры нашего города!

Реклама

Наши новости в ВК

Афиша

Популярное предприятие

Марий Эл

Популярные места, маршруты, интересные объекты и достопримечательности Марий Эл.

Марий Эл в картинах российских художников

Живописные пейзажи города Йошкар-Олы и республики Марий Эл в картинах марийских и российских художников. Проект создан совместно с Республиканским музеем изобразительных искусств.

Биографическая информация об известных жителях Марий Эл, оставивших след в истории республики и наших современниках.

Природа, современность и история республики Марий Эл в одном альбоме.

Фотопроект «Йошкар-Ола: смотреть и видеть».
Первая в республике виртуальная галерея йошкар-олинских фотохудожников.

Электронный архив фотографий и воспоминаний жителей Марий Эл об участниках и ветеранах ВОВ.

Фотографии наших пользователей

Это постоянно пополняемый народный фотоальбом о жизни Марий Эл с комментариями авторов. Давайте вместе создадим галерею нашей республики!

Марий Эл: люди разные, земля одна

Фильмы об истории и культуре многонациональной Республики Марий Эл.

Документальный фильм Just Let Go: Lenny Kravitz Live покажет Первый Канал

Lenny Kravitz Live. Just Let Go 2014

Жанр: Rock/Funk rock/Hard rock/Neo-psychedelia/Neo soul
Продолжительность: 00:58:08
Год выпуска: 2016

Описание: Выступления американского R&B музыканта, мультиинстументалиста, продюсера, аранжировщика, актера, автора и исполнителя Ленни Кравица в рамках европейского турне в поддержку альбома Strut осенью 2014 года.

Доп. информация: Собственная запись со спутникового канала CANAL+ 2016 mar19

Треклист: Fly Away
Dirty White Boots
American Woman
Dancin’ ‘Til Dawn
Strut
It Ain’t Over ‘Til It’s Over
New York City
The Chamber
Sister
Dig In
Let Love Rule
Are You Gonna Go My Way

Качество: HDTV 1080i
Контейнер: TS
Видео кодек: H.264
Аудио кодек: AC3
Видео: Mpeg4 AVC, 1920×1080, 12100 kbps, 25 fps
Аудио: AC3, 384 kbps, 48 kHz, 5.1 ch
Аудио 2: AC3, 384 kbps, 48 kHz, stereo

General
ID : 1 (0x1)
Complete name : E:DownloadsLenny Kravitz Live. Just Let Go 2014.ts
Format : MPEG-TS
File size : 5.50 GiB
Duration : 58mn 8s
Overall bit rate mode : Variable
Overall bit rate : 13.6 Mbps

Video
ID : 359 (0x167)
Menu ID : 13020 (0x32DC)
Format : AVC
Format/Info : Advanced Video Codec
Format profile : Main@L4
Format settings, CABAC : Yes
Format settings, ReFrames : 3 frames
Codec ID : 27
Duration : 58mn 8s
Bit rate : 12.1 Mbps
Width : 1 920 pixels
Height : 1 080 pixels
Display aspect ratio : 16:9
Frame rate : 25.000 fps
Standard : Component
Color space : YUV
Chroma subsampling : 4:2:0
Bit depth : 8 bits
Scan type : Interlaced
Scan order : Top Field First
Bits/(Pixel*Frame) : 0.234
Stream size : 4.92 GiB (89%)
Color range : Limited
Color primaries : BT.601 PAL
Transfer characteristics : BT.470 System B, BT.470 System G
Matrix coefficients : BT.601

Audio #1
ID : 376 (0x178)
Menu ID : 13020 (0x32DC)
Format : AC-3
Format/Info : Audio Coding 3
Mode extension : CM (complete main)
Format settings, Endianness : Big
Codec ID : 6
Duration : 58mn 8s
Bit rate mode : Constant
Bit rate : 384 Kbps
Channel(s) : 6 channels
Channel positions : Front: L C R, Side: L R, LFE
Sampling rate : 48.0 KHz
Compression mode : Lossy
Stream size : 160 MiB (3%)
Language : Polish

Audio #2
ID : 377 (0x179)
Menu ID : 13020 (0x32DC)
Format : AC-3
Format/Info : Audio Coding 3
Mode extension : CM (complete main)
Format settings, Endianness : Big
Codec ID : 6
Duration : 58mn 8s
Bit rate mode : Constant
Bit rate : 384 Kbps
Channel(s) : 2 channels
Channel positions : Front: L R
Sampling rate : 48.0 KHz
Compression mode : Lossy
Stream size : 160 MiB (3%)
Language : English

Just Let Go: Lenny Kravitz Live(Blu-Ray, блюрей) купить

Название: Just Let Go: Lenny Kravitz Live
Год выхода: 2015
Жанр: Rock, American Trad Rock, Neo-Psychedelia, Funk Rock, Hard Rock, Neo Soul, Brown-Eyed Soul
Режиссер: Paul Dugdale
Исполнитель: Lenny Kravitz — vocals, electric and acoustic guitars; Craig Ross — acoustic and electric guitars; Gail Ann Dorsey — bass guitar; Cindy Blackman-Santana — drums; George Laks – keyboard; Harold Todd — saxophone; Ludovic Louis — trumpet; Michael Sherman — baritone saxophon; Erika Jerry, YahZarah St. James, Jessica Wagner-Cowan — background vocals

Описание: Ленни Кравиц и Eagle Rock Entertainment рады объявить о выпуске нового концертного фильма под названием Just Let Go, который выйдет во всем мире на DVD, Blu-ray и во всех цифровых форматах 23 октября. Снимавшийся в течение трех месяцев осенью 2014 года во время Европейской части мирового турне Кравица, просто отпусти показывает впечатляющие живые выступления одни из лучших любимы треки от художника легендарного карьеры, включая “улетай”, “американская женщина”, “это не закончено, пока все кончено” “пусть любовь правит”, “ты собираешься идти Мой путь”, а также новых материалов из его последнего студийного альбома, стойки.

Читайте также  Тесты для гитаристов

“Я сольный артист, но просто отпустите размышления об отношениях с моей группой и товариществе, которое развивается между нами во время гастролей”, — говорит Ленни Кравиц. — Этот фильм позволяет глубже понять, каково это-гастролировать, а также дает возможность заглянуть в мою жизнь с группой как на сцене, так и вне ее.”

Просто отпустить состоит из 12 спектаклей, которые искусно перемежаются с закулисной сырьем, клипы, интервью, и интимных репетиций. Фильм проливает свет на творческий процесс художника за доставку его музыку и эстетическое качество презентации, которые характеризуют его электрификации концерты.

01. Fly Away
02. Dirty White Boots
03. American Woman
04. Dancin’ ‘Til Dawn
05. Strut
06. It Ain’t Over ‘Til It’s Over
07. New York City
08. The Chamber
09. Sister
10. Dig In
11. Let Love Rule
12. Are You Gonna Go My Way

Меню: Есть / Качество: Blu-Ray (1080p)

Аудио: LPCM 2.0, DTS-HD MA 5.1 / Видео: 1920×1080

Выпущено: США
Продолжительность: 01:42:18

Понравилась статья? Поделиться с друзьями:
Добавить комментарий

;-) :| :x :twisted: :smile: :shock: :sad: :roll: :razz: :oops: :o :mrgreen: :lol: :idea: :grin: :evil: :cry: :cool: :arrow: :???: :?: :!: